Posts Tagged ‘HD’

视频分辨率,时间相同,是不是文件大的文件的比文件小的清晰?

星期四, 三月 18th, 2010

刚才去看了下http://www.1up.cn/bbs论坛的贴子,哇,黑色少时的高清MV出来了!有两个版本的,先出来的一个是AVI格式的,大小283MB,后出来的一个TP格式的,大小481MB,这个我没有下载下来,先贴上AVI格式的截图及Info:

BlackSNSD

F:\[CHD@lijia.168] 少女时代_Run Devil Run (Full HD MV).SNSD.avi
General
Complete name : F:\[CHD@lijia.168] 少女时代_Run Devil Run (Full HD MV).SNSD.avi
Format : AVI
Format/Info : Audio Video Interleave
File size : 283 MiB
Duration : 3mn 27s
Overall bit rate : 11.4 Mbps
Writing library : VirtualDub-MPEG2 build 18121/release
Video #0
ID : 0
Format : AVC
Format/Info : Advanced Video Codec
Format profile : High@L5.1
Format settings, CABAC : Yes
Format settings, ReFrames : 2 frames
Codec ID : H264
Duration : 3mn 27s
Bit rate : 10 000 Kbps
Width : 1 920 pixels
Height : 1 080 pixels
Display aspect ratio : 16:9
Frame rate : 29.970 fps
Resolution : 8 bits
Colorimetry : 4:2:0
Scan type : Progressive
Bits/(Pixel*Frame) : 0.161
Stream size : 247 MiB (88%)
Writing library : x264 core 47 svn-530
Encoding settings : cabac=1 / ref=1 / deblock=1:0:0 / analyse=0×3:0×113 / me=hex / subme=5 / brdo=0 / mixed_ref=0 / me_range=16 / chroma_me=1 / trellis=1 / 8x8dct=1 / cqm=0 / chroma_qp_offset=0 / slices=1 / nr=0 / decimate=1 / bframes=2 / b_pyramid=0 / b_adapt=1 / b_bias=0 / direct=2 / wpredb=1 / bime=0 / keyint=250 / keyint_min=25 / scenecut=40 / rc=abr / bitrate=10000 / ratetol=1.0 / rceq=’blurCplx^(1-qComp)’ / qcomp=0.60 / qpmin=10 / qpmax=51 / qpstep=4 / ip_ratio=1.40 / pb_ratio=1.30
Audio
Format : PCM
Format settings, Endianness : Little
Format settings, Sign : Unsigned
Codec ID : 1
Codec ID/Hint : Microsoft
Duration : 3mn 27s
Bit rate mode : Constant
Bit rate : 1 411.2 Kbps
Channel(s) : 2 channels
Sampling rate : 44.1 KHz
Resolution : 16 bits
Stream size : 35.0 MiB (12%)
Interleave, duration : 33 ms (1.00 video frame)
Interleave, preload duration : 500 ms

以下是TP格式的大小为481MB的版本的截图:

一网友说:TP的那个比AVI那个应该清晰很多吧,支持大文件

我认为他的说法不对,其实我以前也是这样认为的,呵呵,应该有很多高清新手也是这样认为的吧!

以下是我对他的回复:

是那个AVI的清楚些,文件大小不同是因为它们采用的编码方式不同,那个AVI的是H264视频编码的,而这个TP应该是MPEG2编码的(因为我也没有下载下来呵,不过90%的可能是啊),有可能你听不懂上面的编码术语,打个不恰当的比喻,H264和MPEG2是不同的压缩算法,H264的压缩率比MPEG2更高些,相同的大小的源文件,使用H264压缩的比MPEG2要小不少,所以用H264的视频文件当然小些,但用MPEG2压缩后虽然视频文件大些,但是对它硬件要求不高,因为它本身的压缩就不高,只要很少的解压缩.
以上还没有说明为什么那个AVI的更清晰.因为更重要的是那个AVI是扫描类型是P(表示逐行),而这个TP我估计是I(隔行扫描的),1080P比1080I更清晰,我也不想说了,用Google搜下吧,别人有解释的.
以上为个人观点,欢迎拍砖!